Sunday, July 16, 2017

FLAC: Pink Floyd "Studio Outtakes & Demos 1971-1972" - 1CD

artist: PINK FLOYD

title: STUDIO OUTTAKES & DEMOS 1971/72

lineage: MASTER > ? > CDR > EAC > WAV > FLAC

quality: EX. SOUNDBOARD RECORDINGS


tracks:
1. ON THE RUN (OUTTAKE)
>> Recorded at Abbey Road Studios, London, November 1972

2. TIME (DEMO)
>> Recorded at Abbey Road Studios, London, June 1972

3. MONEY (ACOUSTIC DEMO)
>> Recorded at ?, 1971?

4. US & THEM (DEMO)
>> Recorded at Abbey Road Studios, London, June 1972

5. BRAIN DAMAGE / ECLIPSE (DEMO)
>> Recorded at Abbey Road Studios, London, June 1972

6. BRAIN DAMAGE (OUTTAKE, PART 1)
7. BRAIN DAMAGE (OUTTAKE, PART 2)
>> Recorded at Abbey Road Studios, London, November 1972

8. ONE OF THESE DAYS (DEMO #1)
9. ONE OF THESE DAYS (DEMO #2)
>> Recorded at ? Studios, 1971?

length     expanded size   cdr  WAVE problems filename
    1:44.60       18486764    ---   --   ---xx   Track01.flac
    6:05.31       64458956    ---   --   ---xx   Track02.flac
    1:38.52       17409548    ---   --   ---xx   Track03.flac
    5:27.06       57696956    ---   --   ---xx   Track04.flac
    3:24.47       36096188    ---   --   ---xx   Track05.flac
    1:24.53       14942300    ---   --   ---xx   Track06.flac
    2:18.66       24498476    ---   --   ---xx   Track07.flac
    4:49.54       51106652    ---   --   ---xx   Track08.flac
    6:49.06       72161756    ---   --   ---xx   Track09.flac
   33:43.00      356857596 B                  
     (totals for 9 files, 0.5663 overall compression ratio)

Download this bootleg here
                   

No comments:

Post a Comment